squallzhao
武林盟主

[2020] [欧美] [BD-1080P] 天钩王 Gutter.King.2010.1080p.BluRay.x264.DD2.0-FGT 4.50GB

-->

帖子完整标题:天钩王 Gutter.King.2010.1080p.BluRay.x264.DD2.0-FGT 4.50GB



◎译  名 天钩王
◎片  名 Gutter King
◎年  代 
◎产  地 美国
◎类  别 
◎语  言 英语
◎上映日期 2010
◎IMDb评分 4/10 from 242 users
◎IMDb链接 https://www.imdb.com/title/tt1286746/
◎豆瓣评分 /10 from 0 users
◎豆瓣链接 https://movie.douban.com/subject/5180741/
◎主  演 Freddie T. Mitchell
      Arthur L. Braddy III
      泽布·克雷恩 Zeb Crown

◎标  签 动作 | 青春 | 美国 | ? | 记录 | 剧情 | 2010

◎简  介

  麻烦少年威尔刚从少教所被放出,他以为自己有新的机会能有一个正常的家庭.但他的养父和兄弟却引导他参加地下的搏击俱乐部打斗以赚取钱财.威尔似乎是一个天生的搏斗高手,加上他以前经常在街头打斗,他在俱乐部几乎每场必赢.威尔后来发现了打斗比赛的阴暗一面,也觉察到了身边的爱与背叛.

Video
ID : 1
Format : AVC
Format/Info : Advanced Video Codec
Format profile : [email protected]
Format settings, CABAC : Yes
Format settings, ReFrames : 4 frames
Codec ID : V_MPEG4/ISO/AVC
Duration : 1h 33mn
Bit rate : 6 510 Kbps
Width : 1 920 pixels
Height : 1 080 pixels
Display aspect ratio : 16:9
Frame rate mode : Constant
Frame rate : 25.000 fps
Color space : YUV
Chroma subsampling : 4:2:0
Bit depth : 8 bits
Scan type : Progressive
Bits/(Pixel*Frame) : 0.126
Stream size : 4.24 GiB (94%)
Writing library : x264 core 128 r2216 198a7ea
Encoding settings : cabac=1 / ref=4 / deblock=1:-1:-1 / analyse=0x3:0x133 / me=umh / subme=7 / psy=1 / psy_rd=1.00:0.15 / mixed_ref=1 / me_range=16 / chroma_me=1 / trellis=1 / 8x8dct=1 / cqm=0 / deadzone=21,11 / fast_pskip=0 / chroma_qp_offset=-3 / threads=12 / lookahead_threads=2 / sliced_threads=0 / nr=0 / decimate=1 / interlaced=0 / bluray_compat=0 / constrained_intra=0 / bframes=3 / b_pyramid=2 / b_adapt=1 / b_bias=0 / direct=3 / weightb=1 / open_gop=0 / weightp=2 / keyint=250 / keyint_min=25 / scenecut=40 / intra_refresh=0 / rc_lookahead=40 / rc=crf / mbtree=1 / crf=20.0 / qcomp=0.60 / qpmin=0 / qpmax=69 / qpstep=4 / ip_ratio=1.40 / aq=1:1.00
Default : Yes
Forced : No

Audio
ID : 2
Format : AC-3
Format/Info : Audio Coding 3
Mode extension : CM (complete main)
Format settings, Endianness : Big
Codec ID : A_AC3
Duration : 1h 33mn
Bit rate mode : Constant
Bit rate : 256 Kbps
Channel(s) : 2 channels
Channel positions : Front: L R
Sampling rate : 48.0 KHz
Frame rate : 31.250 fps (1536 spf)
Compression mode : Lossy
Stream size : 171 MiB (4%)
Language : English
Default : No
Forced : No





1 个附件 售价 大小 下载 时间

Gutter.King.2010.1080p.BluRay.x264.DD2.0-FGT.zip 0 金币 91.47K 126 次 8天前

#1楼
发帖时间:2020-10-18 10:18:50   |   回复数:0
游客组