squallzhao
武林盟主

[2014] [日本] [爱情] [BD-1080P] 圈套剧场版4:最后的舞台/圈套剧场版 Last Stage Trick.The.Movie.Last.Stage.2014.JAPANESE.1080p.Blu

-->

帖子完整标题:圈套剧场版4:最后的舞台/圈套剧场版 Last Stage Trick.The.Movie.Last.Stage.2014.JAPANESE.1080p.BluRay.x264-WiKi 10.42GB



◎译  名 圈套剧场版4:最后的舞台/圈套剧场版 Last Stage
◎片  名 トリック劇場版 ラストステージ
◎年  代 2014
◎产  地 日本
◎类  别 爱情 / 悬疑
◎语  言 日语
◎上映日期 2014-01-11(日本)
◎IMDb评分 6.3/10 from 212 users
◎IMDb链接 https://www.imdb.com/title/tt3037406/
◎豆瓣评分 8.1/10 from 5257 users
◎豆瓣链接 https://movie.douban.com/subject/24844958/
◎片  长 112分钟
◎导  演 堤幸彦 Yukihiko Tsutsumi
◎编  剧 莳田光治 K?ji Makita
◎主  演 仲间由纪惠 Yukie Nakama
      阿部宽 Hiroshi Abe
      生濑胜久 Katsuhisa Namase
      野际阳子 Y?ko Nogiwa
      东山纪之 Noriyuki Higashiyama
      北村一辉 Kazuki Kitamura
      水原希子 Kiko Mizuhara
      中村育二 Ikuji Nakamura
      石丸谦二郎 Kenjir? Ishimaru
      池田铁洋 Tetsuhiro Ikeda
      吉田钢太郎 K?tar? Yoshida
      前原一辉 Kazuki Maehara
      大岛蓉子 Y?ko Ohshima

◎标  签 日本 | 圈套 | 悬疑 | 2014 | 推理 | 看过的电视剧 | 日语标签 | 喜剧

◎简  介

  位于赤道附近的寸外共和国某个未开发的秘境发现丰富的稀土资源,来自日本的村上商事试图获得当地的开发权,但遭到原住民的反对,还被女巫博诺伊(水原希子 饰)做出恶毒诅咒。该公司职员贺美慎一(东山纪之 饰)找到自称天才物理学家的上田次郎(阿部宽 饰),希望借助他之手戳破女巫的巫术骗局。而在意外目睹诅咒之死的惊人一幕后,心有余悸的上田找到灰头土脸的山田奈绪子(仲间由纪惠 饰),邀请对方和她一同踏上凶险的旅程。与此同时,刑警矢部谦三(生濑胜久 饰)和搭档秋叶原人(池田铁洋 饰)为调查案件也来到当地。
  
  诅咒接二连三应验,甚至连上田也无法幸免。更令众人始料未及的是,更大的危机即将降临这个地区……

Format : Matroska
Format version : Version 2
File size : 10.3 GiB
Duration : 1h 52mn
Overall bit rate : 13.2 Mbps
Encoded date : UTC 2014-07-09 16:13:06
Writing application : mkvmerge v5.8.0 (\'No Sleep / Pillow\') built on Sep 2 2012 15:37:04
Writing library : libebml v1.2.3 + libmatroska v1.3.0
Attachment : Yes / Yes / Yes / Yes / Yes / Yes

Video
ID : 1
Format : AVC
Format/Info : Advanced Video Codec
Format profile : [email protected]
Format settings, CABAC : Yes
Format settings, ReFrames : 4 frames
Codec ID : V_MPEG4/ISO/AVC
Duration : 1h 52mn
Bit rate : 12.5 Mbps
Width : 1 920 pixels
Height : 1 038 pixels
Display aspect ratio : 1.85:1
Frame rate mode : Constant
Frame rate : 23.976 fps
Color space : YUV
Chroma subsampling : 4:2:0
Bit depth : 8 bits
Scan type : Progressive
Bits/(Pixel*Frame) : 0.262
Stream size : 9.61 GiB (93%)
Writing library : x264 core 136 r2348+704+51 d1baef6 tMod [[email protected] X86_64]
Encoding settings : cabac=1 / ref=4 / deblock=1:-3:-3 / analyse=0x3:0x133 / me=umh / subme=11 / psy=1 / fade_compensate=0.00 / psy_rd=1.05:0.00 / mixed_ref=1 / me_range=64 / chroma_me=1 / trellis=2 / 8x8dct=1 / cqm=0 / deadzone=21,11 / fast_pskip=0 / chroma_qp_offset=-2 / threads=12 / lookahead_threads=2 / sliced_threads=0 / nr=0 / decimate=0 / interlaced=0 / bluray_compat=0 / constrained_intra=0 / fgo=0 / bframes=8 / b_pyramid=2 / b_adapt=2 / b_bias=0 / direct=3 / weightb=1 / open_gop=0 / weightp=2 / keyint=250 / keyint_min=23 / scenecut=40 / intra_refresh=0 / rc_lookahead=120 / rc=2pass / mbtree=0 / bitrate=12500 / ratetol=1.0 / qcomp=0.75 / qpmin=0:0:0 / qpmax=69:69:69 / qpstep=4 / cplxblur=20.0 / qblur=0.5 / vbv_maxrate=50000 / vbv_bufsize=50000 / nal_hrd=none / ip_ratio=1.40 / pb_ratio=1.30 / aq=1:0.90 / aq-sensitivity=10.00 / aq-factor=1.00:1.00:1.00 / aq2=0 / aq3=0
Language : Japanese
Default : Yes
Forced : No
Matrix coefficients : BT.709

Audio
ID : 2
Format : AC-3
Format/Info : Audio Coding 3
Mode extension : CM (complete main)
Format settings, Endianness : Big
Codec ID : A_AC3
Duration : 1h 52mn
Bit rate mode : Constant
Bit rate : 640 Kbps
Channel(s) : 6 channels
Channel positions : Front: L C R, Side: L R, LFE
Sampling rate : 48.0 KHz
Bit depth : 16 bits
Compression mode : Lossy
Stream size : 513 MiB (5%)
Language : Japanese
Default : Yes
Forced : No

Text #1
ID : 3
Format : ASS
Codec ID : S_TEXT/ASS
Codec ID/Info : Advanced Sub Station Alpha
Compression mode : Lossless
Title : CHS
Language : Chinese
Default : No
Forced : No

Text #2
ID : 4
Format : ASS
Codec ID : S_TEXT/ASS
Codec ID/Info : Advanced Sub Station Alpha
Compression mode : Lossless
Title : CHT
Language : Chinese
Default : No
Forced : No

Menu
00:00:00.000 : en:00:00:00.000
00:01:30.048 : en:00:01:30.048
00:08:37.016 : en:00:08:37.016
00:12:43.888 : en:00:12:43.888
00:13:09.288 : en:00:13:09.288
00:18:01.372 : en:00:18:01.372
00:23:41.128 : en:00:23:41.128
00:28:40.510 : en:00:28:40.510
00:32:50.135 : en:00:32:50.135
00:39:54.892 : en:00:39:54.892
00:45:25.264 : en:00:45:25.264
00:49:44.732 : en:00:49:44.732
00:59:00.078 : en:00:59:00.078
01:02:09.893 : en:01:02:09.893
01:08:09.085 : en:01:08:09.085
01:14:53.489 : en:01:14:53.489
01:23:19.870 : en:01:23:19.870
01:32:41.931 : en:01:32:41.931
01:42:16.005 : en:01:42:16.005
01:45:56.267 : en:01:45:56.267
01:49:29.396 : en:01:49:29.396





1 个附件 售价 大小 下载 时间

Trick.The.Movie.Last.Stage.2014.JAPANESE.1080p.BluRay.x264-WiKi.zip 0 金币 105.80K 364 次 8天前

#1楼
发帖时间:2020-10-18 11:10:56   |   回复数:0
游客组