travismk
一代宗师

[2006] [韩国] [剧情] [WEB-720P] 海边的女人 Woman.on.the.Beach.2006.KOREAN.ENSUBBED.720p.AMZN.WEBRip.DDP2.0.x264-NOGRP

-->

帖子完整标题:海边的女人 Woman.on.the.Beach.2006.KOREAN.ENSUBBED.720p.AMZN.WEBRip.DDP2.0.x264-NOGRP 5.36GB



◎译  名 海边的女人/Woman on the Beach/沙滩上的女人(港)/海边恋人
◎片  名 ??? ??
◎年  代 2006
◎产  地 韩国
◎类  别 剧情 / 喜剧 / 爱情
◎语  言 韩语
◎上映日期 2006-08-31
◎IMDb评分 6.9/10 from 1047 users
◎IMDb链接 https://www.imdb.com/title/tt0835787/
◎豆瓣评分 7.4/10 from 2207 users
◎豆瓣链接 https://movie.douban.com/subject/1853749/
◎片  长 128分钟
◎导  演 洪常秀 Sang-soo Hong
◎编  剧 洪常秀 Sang-soo Hong
◎主  演 高贤贞 Hyun-jung Go
      李己雨 Ki-woo Lee
      金承佑 Seung-woo Kim
      文成根 Seung Geun Moon
      宋宣美 Seon-mi Song
      尹栋焕 Dong-hwan Yoon
      郑灿 Chan Jung
      吴泰景 Tae-kyung Oh
      金太祐 Tae-woo Kim

◎标  签 洪尚秀 | 韩国 | 韩国电影 | 爱情 | 2006 | 海边的女人 | 2000s | 高贤廷

◎简  介

  影片讲述了4个30出头的男女在海边旅行所发生的故事,洪尚秀一如既往地把镜头对准都市男女,叙说不完的情爱。

◎获奖情况

  第19届东京国际电影节 ?(2006)
  主竞赛单元最佳影片(提名) 洪常秀
  
  第1届亚洲电影大奖 ?(2007)
  最佳导演(提名) 洪常秀
  最佳编剧(提名) 洪常秀
  最佳原创音乐(提名) 郑容真

Video
ID : 1
Format : AVC
Format/Info : Advanced Video Codec
Format profile : [email protected]
Format settings : CABAC / 4 Ref Frames
Format settings, CABAC : Yes
Format settings, Reference frames : 4 frames
Format settings, GOP : M=4, N=48
Codec ID : V_MPEG4/ISO/AVC
Duration : 2 h 8 min
Bit rate mode : Constant
Bit rate : 6 000 kb/s
Width : 1 280 pixels
Height : 688 pixels
Display aspect ratio : 1.85:1
Frame rate mode : Constant
Frame rate : 24.000 FPS
Color space : YUV
Chroma subsampling : 4:2:0
Bit depth : 8 bits
Scan type : Progressive
Bits/(Pixel*Frame) : 0.284
Stream size : 5.16 GiB (96%)
Default : Yes
Forced : No
Color range : Limited
Color primaries : BT.709
Transfer characteristics : BT.709
Matrix coefficients : BT.709

Audio
ID : 2
Format : E-AC-3
Format/Info : Enhanced AC-3
Commercial name : Dolby Digital Plus
Codec ID : A_EAC3
Duration : 2 h 8 min
Bit rate mode : Constant
Bit rate : 224 kb/s
Channel(s) : 2 channels
Channel layout : L R
Sampling rate : 48.0 kHz
Frame rate : 31.250 FPS (1536 SPF)
Compression mode : Lossy
Stream size : 206 MiB (4%)
Language : Korean
Service kind : Complete Main
Default : Yes
Forced : No





1 个附件 售价 大小 下载 时间

Woman.on.the.Beach.2006.KOREAN.ENSUBBED.720p.AMZN.WEBRip.DDP2.0.x264-NOGRP.zip 0 金币 27.51K 448 次 1月前

#1楼
发帖时间:2021-01-24 12:50:22   |   回复数:1
Jasongreat
武林盟主
多谢楼主的分享;片子算是老片子了
1月前 #2楼
游客组