travismk
一代宗师

[2018] [日本] [爱情] [WEB-1080P] 接招吧!那边的女孩 Lock-On.Love.2018.JAPANESE.1080p.NF.WEBRip.DDP5.1.x264-NOGRP 1.86GB

-->

帖子完整标题:接招吧!那边的女孩 Lock-On.Love.2018.JAPANESE.1080p.NF.WEBRip.DDP5.1.x264-NOGRP 1.86GB



◎译  名 接招吧!那边的女孩/Are You Ready? Hey You Girl!/Kakugo wa ii ka soko no joshi./就是要你爱上我(台)
◎片  名 覚悟はいいかそこの女子。
◎年  代 2018
◎产  地 日本
◎类  别 爱情
◎语  言 日语
◎上映日期 2018-10-12(日本)
◎IMDb评分 6.6/10 from 189 users
◎IMDb链接 https://www.imdb.com/title/tt8718066/
◎豆瓣评分 5.4/10 from 683 users
◎豆瓣链接 https://movie.douban.com/subject/30200998/
◎片  长 95分钟
◎导  演 井口升 Noboru Iguchi
◎编  剧 李正姫 Jung-hee Lee
◎主  演 中川大志 Taishi Nakagawa
      唐田英里佳 Erika Karata
      伊藤健太郎 Kentaro Ito
      若林时英 Jiei Wakabayashi
      甲斐翔真 Shoma Kai
      荒川良良 YosiYosi Arakawa
      小池彻平 Teppei Koike

◎标  签 日本 | 爱情 | 校园 | 青春 | 2018 | 漫画改编 | 漫画小说真人版 | 喜剧

◎简  介

  明明很受欢迎却没有女朋友,观赏用男子,古谷斗和,在朋友的刺激下,下定决心要交到女朋友!目标是——三轮美苑,全学年最受欢迎的女生,来接招吧!

◎获奖情况

  第42届日本电影学院奖 ?(2019)
  最佳新人 中川大志

Video
ID : 1
Format : AVC
Format/Info : Advanced Video Codec
Format profile : [email protected]
Format settings : CABAC / 4 Ref Frames
Format settings, CABAC : Yes
Format settings, Reference frames : 4 frames
Codec ID : V_MPEG4/ISO/AVC
Duration : 1 h 35 min
Bit rate mode : Variable
Bit rate : 2 145 kb/s
Maximum bit rate : 20.0 Mb/s
Width : 1 920 pixels
Height : 1 080 pixels
Display aspect ratio : 16:9
Frame rate mode : Constant
Frame rate : 23.976 (24000/1001/189150) FPS
Color space : YUV
Chroma subsampling : 4:2:0
Bit depth : 8 bits
Scan type : Progressive
Bits/(Pixel*Frame) : 0.043
Stream size : 1.43 GiB (77%)
Writing library : x264 core 148 r2717 0d2410d
Encoding settings : cabac=1 / ref=4 / deblock=1:0:0 / analyse=0x3:0x111 / me=umh / subme=10 / psy=1 / psy_rd=1.00:0.00 / mixed_ref=1 / me_range=120 / chroma_me=1 / trellis=2 / 8x8dct=1 / cqm=0 / deadzone=21,11 / fast_pskip=1 / chroma_qp_offset=-2 / threads=8 / lookahead_threads=2 / sliced_threads=0 / nr=0 / decimate=1 / interlaced=0 / bluray_compat=0 / stitchable=1 / constrained_intra=0 / bframes=16 / b_pyramid=2 / b_adapt=2 / b_bias=0 / direct=3 / weightb=1 / open_gop=0 / weightp=2 / keyint=240 / keyint_min=121 / scenecut=0 / intra_refresh=0 / rc_lookahead=240 / rc=crf / mbtree=1 / crf=24.0 / qcomp=0.50 / qpmin=6 / qpmax=51 / qpstep=4 / vbv_maxrate=20000 / vbv_bufsize=25000 / crf_max=0.0 / nal_hrd=vbr / filler=0 / ip_ratio=1.40 / aq=1:0.80
Default : Yes
Forced : No

Audio
ID : 2
Format : E-AC-3
Format/Info : Enhanced AC-3
Commercial name : Dolby Digital Plus
Codec ID : A_EAC3
Duration : 1 h 35 min
Bit rate mode : Constant
Bit rate : 640 kb/s
Channel(s) : 6 channels
Channel layout : L R C LFE Ls Rs
Sampling rate : 48.0 kHz
Frame rate : 31.250 FPS (1536 SPF)
Compression mode : Lossy
Stream size : 436 MiB (23%)
Title : Japanese
Language : Japanese
Service kind : Complete Main
Default : Yes
Forced : No

Text #1
ID : 3
Format : UTF-8
Codec ID : S_TEXT/UTF8
Codec ID/Info : UTF-8 Plain Text
Duration : 1 h 30 min
Bit rate : 46 b/s
Count of elements : 1221
Stream size : 30.6 KiB (0%)
Language : English
Default : Yes
Forced : No

Text #2
ID : 4
Format : UTF-8
Codec ID : S_TEXT/UTF8
Codec ID/Info : UTF-8 Plain Text
Duration : 1 h 34 min
Bit rate : 72 b/s
Count of elements : 1528
Stream size : 50.5 KiB (0%)
Title : SDH
Language : Japanese
Default : No
Forced : No





1 个附件 售价 大小 下载 时间

Lock-On.Love.2018.JAPANESE.1080p.NF.WEBRip.DDP5.1.x264-NOGRP.zip 0 金币 19.25K 679 次 1月前

#1楼
发帖时间:2021-01-24 13:12:36   |   回复数:1
liyouchai
隐世仙人♂
谢谢楼主分享资源
1月前 #2楼
游客组